Uyyala Jampala (2013) Telugu CamRip__CZAR__.MP4

Removed by the request of copyright owner, 3 months ago
Added on Dec 30, 2013 by _CZAR_665 in Movies
Downloaded 2,934 times.

Available in versions: 720pDVDRipMPEG-4
Uyyala Jampala (2013) Telugu CamRip__CZAR__.MP4 (Size: 296.85 MB)
  Uyyala Jampala (2013) Telugu CamRip__CZAR__.MP4 296.85 MB

Description

image
image
image
[code]General
Complete name : C:\Documents and Settings\user\My Documents\Downloads\Video\Uyyala Jampala (2013) Telugu CamRip__CZAR__.MP4
Format : Flash Video
File size : 297 MiB
Duration : 1h 51mn
Overall bit rate : 373 Kbps
Tagging application : Yet Another Metadata Injector for FLV - Version 1.5

Video
Format : AVC
Format/Info : Advanced Video Codec
Format profile : High@L2.1
Format settings, CABAC : Yes
Format settings, ReFrames : 4 frames
Codec ID : 7
Duration : 1h 51mn
Bit rate : 306 Kbps
Width : 570 pixels
Height : 240 pixels
Display aspect ratio : 2.40:1
Frame rate mode : Constant
Frame rate : 23.976 fps
Color space : YUV
Chroma subsampling : 4:2:0
Bit depth : 8 bits
Scan type : Progressive
Bits/(Pixel*Frame) : 0.093
Stream size : 241 MiB (81%)
Writing library : x264 core 107
Encoding settings : 
Audio
Format : MPEG Audio
Format version : Version 2
Format profile : Layer 3
Mode : Joint stereo
Mode extension : MS Stereo
Codec ID : 2
Codec ID/Hint : MP3
Duration : 1h 51mn
Bit rate mode : Constant
Bit rate : 64.0 Kbps
Channel(s) : 2 channels
Sampling rate : 22.05 KHz
Compression mode : Lossy
Delay relative to video : 1ms
Stream size : 53.8 MiB (18%)
Writing library : LAME3.98.4

[/code]
image

http://ttsnapshot.net/show.php/25901_vlcsnap-2013-12-29-16h02m32s160.png.html

http://ttsnapshot.net/show.php/25896_vlcsnap-2013-12-29-15h59m40s236.png.html



Trackers

tracker name Status checked seeders leechers downloads
udp://tracker.publicbt.com:80/announce
outdated 04 Jan 2014 - - -
udp://tracker.openbittorrent.com:80/announce
outdated 04 Jan 2014 - - -
http://tracker.ex.ua/announce
outdated 04 Jan 2014 - - -
udp://tracker.istole.it:80/announce
outdated 04 Jan 2014 - - -
udp://tracker.ccc.de:80/announce
outdated 01 Jan 2014 - - -
udp://tracker.torrentbox.com:2710/announce
outdated 01 Jan 2014 - - -
http://pow7.com/announce
outdated 01 Jan 2014 - - -
udp://fr33domtracker.h33t.com:3310/announce
deleted 01 Jan 2014 - - -
udp://ipv4.tracker.harry.lu:80/announce
pending 04 Jan 2014 214 69 10
udp://9.rarbg.com:2710/announce
pending 04 Jan 2014 176 48 911
ĀµTorrent compatible trackers list

Locations

name author
Torrent hash: 8A2EB5CB34CA3D1EA356445DCE87C2572C4E6467

All Comments

audio
7/10
video
4/10
please, leave only comments related to that torrent
or sign-in
0
anonymous • 04 January 2014, 15:27 Show comment
plzz uplode A Bug's Life (1998) - (Tel-Eng) - 720p - Esubs - Prototype
0
anonymous • 04 January 2014, 15:27 Show comment
plzz uplode A Bug's Life (1998) - (Tel-Eng) - 720p - Esubs - Prototype
0
22bigdaddy555123 • 02 January 2014, 03:10
torrent downloaded
Show comment
audio: 7video: 4
Sorry My Friend, Terrible Picture
0
shannu1136 • 31 December 2013, 15:09 Show comment
wathcable print but want better print
0
anonymous • 31 December 2013, 13:08 Show comment
completed download fastly, watchable print
1
anonymous • 31 December 2013, 08:26 Show comment
tried twice.. in both the occasions, this got stuck at 60.6 %
0
B.U.N309 • 31 December 2013, 11:14
torrent downloaded
Show comment
same here...
0
B.U.N309 • 01 January 2014, 01:08
torrent downloaded
Show comment
now its working, completed 100%...try out once more....happy watching :)

User Opinions

wermad1042, B.U.N309, vijaygopal243, krishkd137, sertk70, drnarenmds52, broosley51, SSrikar47, saiabhiram43, rahulchinnu2 ... And 1 more
sandeepnaga88
Report a bug