The Hobbit The Desolation Of Smaug 2013 NEW 720p DVDScr x264 Pimp4003

Removed by the request of copyright owner, 8 months ago
Added on Dec 28, 2013 by pimp400328.82K in Movies
Torrent verified. Downloaded 34,306 times.

The Hobbit The Desolation Of Smaug 2013 NEW 720p DVDScr x264 Pimp4003 (Size: 3.63 GB)
  [WWW.PIMP4003.NET] The Hobbit The Desolation Of Smaug 2013 NEW 720p DVDScr x264 Pimp4003.mp4 3.63 GB
  Torrent downloaded from pimp4003.se.txt 58 bytes

Description

image
image
image
image
image
image
image
image
image


PIMP4003 AND PIMPRG PRESENTS

The Hobbit The Desolation Of Smaug 2013 NEW 720p DVDScr x264 Pimp4003

http://www.imdb.com/title/tt1170358/

The dwarves, along with Bilbo Baggins and Gandalf the Grey, continue their quest to reclaim Erebor, their homeland, from Smaug. Bilbo Baggins is in possession of a mysterious and magical ring.

Director: Peter Jackson
Writers: Fran Walsh (screenplay), Philippa Boyens (screenplay), 3 more credits »
Stars: Ian McKellen, Martin Freeman, Richard Armitage | See full cast and crew »

Genre: Action | Thriller
File Size: 3.62GB
Source: EVIL-DEAD
Language: ENGLISH

Video
ID : 2
Format : AVC
Format/Info : Advanced Video Codec
Format profile : Baseline@L3.0
Format settings, CABAC : No
Format settings, ReFrames : 1 frame
Muxing mode : Container profile=Baseline@4.1
Codec ID : avc1
Codec ID/Info : Advanced Video Coding
Duration : 2h 41mn
Bit rate : 3 120 Kbps
Width : 1 280 pixels
Height : 720 pixels
Display aspect ratio : 16:9
Frame rate mode : Constant
Frame rate : 29.970 fps
Original frame rate : 29.000 fps
Color space : YUV
Chroma subsampling : 4:2:0
Bit depth : 8 bits
Scan type : Progressive
Bits/(Pixel*Frame) : 0.113
Stream size : 3.51 GiB (97%)
Writing library : Ä
Language : English

Audio
ID : 1
Format : AAC
Format/Info : Advanced Audio Codec
Format profile : LC
Codec ID : 40
Duration : 2h 41mn
Bit rate mode : Constant
Bit rate : 96.0 Kbps
Channel(s) : 6 channels
Channel positions : Front: L C R, Side: L R, LFE
Sampling rate : 48.0 KHz
Compression mode : Lossy
Stream size : 111 MiB (3%)
Language : English


ALWAYS ON SEED BOX

GREETZ TO PIMPRG AND ALL OTHER GROUPS

Pimp4003 | SUJAIDR | PIMPRG | JUNAIDZIA | RICKYKT | LOKKIODDIN | SCENEDL | Ali1997 | AND ALL OTHER P2P AND SCENE GROUPS

Related Torrents

torrent name size files age seed leech

Trackers

tracker name Status checked seeders leechers downloads
udp://tracker.openbittorrent.com:80/announce
outdated 09 Jan 2014 - - -
udp://9.rarbg.com:2710/announce
outdated 09 Jan 2014 - - -
udp://open.demonii.com:1337/announce
outdated 09 Jan 2014 - - -
udp://tracker.publicbt.com:80/announce
outdated 09 Jan 2014 - - -
udp://tracker.istole.it:80/announce
outdated 09 Jan 2014 - - -
udp://tracker.seedceo.com:2710/announce
blocked 07 Jan 2014 - - -
http://tracker1.wasabii.com.tw:6969/announce
deleted 07 Jan 2014 - - -
http://pimp4003.net:2710/announce
pending 07 Jan 2014 0 0 0
http://pimp4003.net/announce.php
pending 07 Jan 2014 0 0 0
µTorrent compatible trackers list

Locations

name
Torrent hash: 05CBB3B4A6459EADA1EBE5205C5282947BE3F6DA

Top Comments

14
SmaugTheGreat4373 • 28 Dec 2013, 15:25
torrent downloaded
1.Do not comment on torrents you haven't downloaded. Reported.
2. MP4's cannot contain viruses.
3. I do not think one earns a reputation of 13K by uploading junk.

Last edited by SmaugTheGreat, 8 months ago

4
anonymous • 29 Dec 2013, 15:37
why is everyone giving this such high scores? V:4 and A:6 and i'm being generous...

All Comments

audio
5/10
video
5/10
please, leave only comments related to that torrent
or sign-in
0
anonymous • 09 January 2014, 13:38 Show comment
Great movie! Thanks to the uploader but quality is pretty bad. Finally I found FULL HD version at http://adg.io/1r and it worked great for me.
0
anonymous • 09 January 2014, 08:30 Show comment
Great movie! Thanks to the uploader but quality is pretty bad. Finally I found FULL HD version at http://adg.io/1r and it worked great for me.
0
anonymous • 09 January 2014, 00:09 Show comment
Great movie! Thanks to the uploader but quality is pretty bad. Finally I found FULL HD version at http://e-a.fr/hdmovies and it worked great for me.
0
anonymous • 08 January 2014, 20:55 Show comment
Great movie! Thanks to the uploader but quality is pretty bad. Finally I found FULL HD version at http://e-a.fr/hdmovies and it worked great for me.
0
anonymous • 08 January 2014, 20:04 Show comment
Great movie! Thanks to the uploader but quality is pretty bad. Finally I found FULL HD version at http://shorturl.fr/cj5 and it worked great for me.
0
anonymous • 08 January 2014, 19:01 Show comment
Great movie! Thanks to the uploader but quality is pretty bad. Finally I found FULL HD version at http://shorturl.fr/cj5 and it worked great for me.
0
anonymous • 08 January 2014, 16:55 Show comment
Great movie! Thanks to the uploader but quality is pretty bad. Finally I found FULL HD version at http://lc.cx/hdmovies and it worked great for me.
0
anonymous • 08 January 2014, 16:25 Show comment
get the copy at this link - i downloaded it last night and it's great. I can't get over the quality of it. the address is http://kickmirror.com/the-hobbit-the-desolation-of-smaug-2013-dvdscr-xvid-maxspeed-t8452686.html#main
Show More

User Opinions

Djamel72012.51K, Devitto1098, mr.wrong74729, Pr4nkst3r593, Righton562, soulstaker513, eROtiKKos217, achindu157, popeye[gsh]154, en-core40 ... And 99 more
*Mads*10.46K, Ahmadsh334, Embermoon287, djjhonny232, nomansatti21217, saasaa19202, PraySword122, echicken112, saicoshark106, orkgashmo94 ... And 7 more
Report a bug