The Conjuring 2013 R6 WEBRiP XviD-Acesn8s

seeders: 1790
leechers: 32
Added on Aug 3, 2013 by Acesn8s85405 in Movies
Torrent verified. Downloaded 10,616 times.

download
The Conjuring 2013 R6 WEBRiP XviD-Acesn8s (Size: 705.05 MB)
  The Conjuring 2013 R6 Webrip XviD Acesan8s.avi 705.05 MB
  Torrent Downloaded From ExtraTorrent.com.txt 339 bytes

Description

image
The.Conjuring.2013.R6.WEBRiP.XviD Acesan8s

Format : AVI
Format/Info : Audio Video Interleave
File size : 705 MiB
Duration : 1h 47mn
Overall bit rate : 919 Kbps
Writing application : VirtualDubMod 1.5.10.2 (build 2540/release)
Writing library : VirtualDubMod build 2540/release

Video
ID : 0
Format : MPEG-4 Visual
Format profile : Advanced Simple@L5
Format settings, BVOP : 2
Format settings, QPel : No
Format settings, GMC : No warppoints
Format settings, Matrix : Default (H.263)
Muxing mode : Packed bitstream
Codec ID : XVID
Codec ID/Hint : XviD
Duration : 1h 47mn
Bit rate : 781 Kbps
Width : 640 pixels
Height : 288 pixels
Display aspect ratio : 2.222
Frame rate : 23.976 fps
Color space : YUV
Chroma subsampling : 4:2:0
Bit depth : 8 bits
Scan type : Progressive
Compression mode : Lossy
Bits/(Pixel*Frame) : 0.177
Stream size : 600 MiB (85%)
Writing library : XviD 64

Audio
ID : 1
Format : MPEG Audio
Format version : Version 1
Format profile : Layer 3
Mode : Joint stereo
Mode extension : MS Stereo
Codec ID : 55
Codec ID/Hint : MP3
Duration : 1h 47mn
Bit rate mode : Constant
Bit rate : 128 Kbps
Channel(s) : 2 channels
Sampling rate : 44.1 KHz
Compression mode : Lossy
Stream size : 98.2 MiB (14%)
Alignment : Split accross interleaves
Interleave, duration : 42 ms (1.00 video frame)
Interleave, preload duration : 500 ms

Screens:

image
image
image
image

Trailer


https://www.youtube.com/watch?v=k10ETZ41q5o

Related Torrents

torrent name size files age seed leech

Sharing Widget


Download torrent
705.05 MB
seeders:1790
leechers:32
The Conjuring 2013 R6 WEBRiP XviD-Acesn8s

Trackers

tracker name Status checked seeders leechers downloads
udp://tracker.openbittorrent.com:80/announce
outdated 30 Jan 2014 - - -
udp://tracker.publicbt.com:80/announce
outdated 30 Jan 2014 - - -
udp://tracker.istole.it:80/announce
outdated 31 Dec 2013 - - -
udp://fr33domtracker.h33t.com:3310/announce
deleted 26 Dec 2013 - - -
http://anisaishuu.de:2710/announce
pending 30 Jan 2014 652 22 10616
http://explodie.org:6969/announce
pending 30 Jan 2014 623 22 1380
udp://explodie.org:6969/announce
pending 30 Jan 2014 623 22 1380
http://bt2.careland.com.cn:6969/announce
pending 26 Dec 2013 0 0 0
udp://anisaishuu.de:2710/announce
pending 26 Dec 2013 0 0 0
udp://bt2.careland.com.cn:6969/announce
pending 26 Dec 2013 0 0 0
ĀµTorrent compatible trackers list

Locations

name author
KickassTorrents Acesn8s
Torrent hash: 19733F06522B282E3B041C2868669572EF740559

Uploader Comments

2
anonymous • 03 Aug 2013, 03:05
Or even hard coded Chinese subtitles?
63
Acesn8s85405 • 03 Aug 2013, 03:24
yes mates has harcoded chinese subs but if i would have cropped them the vid would b unwatchable, has studio english audio though, don't know y chinese have 2 crucify everything :(
the screens r on the main page.

Top Comments

68
remlap4894 • 03 Aug 2013, 13:39
torrent downloaded
audio: 7video: 7
I ain' afraid uh no SUBS!lol
28
created61932 • 05 Aug 2013, 13:09
OK, if this was a couple weeks from being on dvd, i would understand the complaints about quality, but this movie is brand new, still in theaters! PLUS this is the best copy out right now.... so stfu. Thx uploader! Wish ALL movies could be released onto DVD after 2 weeks in theaters!

All Comments

audio
7/10
video
7/10
please, leave only comments related to that torrent
or sign-in
0
TelBren910426 • 13 April 2014, 19:15
torrent downloaded
Show comment
audio: 2video: 2
Error downloading
0
dilankasil1039 • 04 April 2014, 03:12
torrent downloaded
Show comment
audio: 9video: 9
Damnn!!
wasa good one!!!
0
MannuYadav82039 • 25 March 2014, 15:28
torrent downloaded
Show comment
audio: 8video: 9
0
ruknrulrafi150 • 23 March 2014, 09:18
torrent downloaded
Show comment
audio: 9video: 9
superb movie, good quality audio, video. thanks for sharing....
0
cjlukrfc178 • 19 March 2014, 20:23
torrent downloaded
Show comment
Downloaded it, then released it was the same one that I had downloaded months ago! Great quality besides the subtitles. Thanks u/l
0
Isideth4816 • 03 February 2014, 01:18
torrent downloaded
Show comment
audio: 7video: 7
0
anonymous • 29 January 2014, 11:30 Show comment
this is my entertainment for chinese new year :P
Show More

User Opinions

al_rosiemae967, geekkunal585, princehindu563, swrt75284, Sheena80251, stricnin185, gilbis179, bmoney95, Roury77, basilakos22 ... And 2348 more
rayron4151, sassy20031658, linerider691645, calocalderon1222, ToxicSoldier1200, Moleman220, mika49195, frnklry1155, maach0141, snipr88814 ... And 208 more
Report a bug