The Conjuring 2013 R6 WEBRiP XviD-Acesn8s

seeders: 570
leechers: 5
Added on Aug 3, 2013 by Acesn8s88.55K in Movies
Torrent verified. Downloaded 27,214 times.

download
Summary:
Paranormal investigators Ed and Lorraine Warren work to help a family terrorized by a dark presence in their farmhouse.
Submitted by 5fingerdis47.08K
report summary
The Conjuring 2013 R6 WEBRiP XviD-Acesn8s (Size: 705.05 MB)
  The Conjuring 2013 R6 Webrip XviD Acesan8s.avi 705.05 MB
  Torrent downloaded from extratorrent.com.txt 339 bytes

Description

image
The.Conjuring.2013.R6.WEBRiP.XviD Acesan8s

Format : AVI
Format/Info : Audio Video Interleave
File size : 705 MiB
Duration : 1h 47mn
Overall bit rate : 919 Kbps
Writing application : VirtualDubMod 1.5.10.2 (build 2540/release)
Writing library : VirtualDubMod build 2540/release

Video
ID : 0
Format : MPEG-4 Visual
Format profile : Advanced Simple@L5
Format settings, BVOP : 2
Format settings, QPel : No
Format settings, GMC : No warppoints
Format settings, Matrix : Default (H.263)
Muxing mode : Packed bitstream
Codec ID : XVID
Codec ID/Hint : XviD
Duration : 1h 47mn
Bit rate : 781 Kbps
Width : 640 pixels
Height : 288 pixels
Display aspect ratio : 2.222
Frame rate : 23.976 fps
Color space : YUV
Chroma subsampling : 4:2:0
Bit depth : 8 bits
Scan type : Progressive
Compression mode : Lossy
Bits/(Pixel*Frame) : 0.177
Stream size : 600 MiB (85%)
Writing library : XviD 64

Audio
ID : 1
Format : MPEG Audio
Format version : Version 1
Format profile : Layer 3
Mode : Joint stereo
Mode extension : MS Stereo
Codec ID : 55
Codec ID/Hint : MP3
Duration : 1h 47mn
Bit rate mode : Constant
Bit rate : 128 Kbps
Channel(s) : 2 channels
Sampling rate : 44.1 KHz
Compression mode : Lossy
Stream size : 98.2 MiB (14%)
Alignment : Split accross interleaves
Interleave, duration : 42 ms (1.00 video frame)
Interleave, preload duration : 500 ms

Screens:

image
image
image
image

Trailer


https://www.youtube.com/watch?v=k10ETZ41q5o

Related Torrents

torrent name size files age seed leech

Sharing Widget


Download torrent
705.05 MB
seeders:570
leechers:5
The Conjuring 2013 R6 WEBRiP XviD-Acesn8s

Trackers

tracker name Status checked seeders leechers downloads
udp://tracker.openbittorrent.com:80/announce
outdated 21 Sep 2014 - - -
udp://tracker.publicbt.com:80/announce
outdated 21 Sep 2014 - - -
udp://tracker.istole.it:80/announce
outdated 21 Sep 2014 - - -
udp://fr33domtracker.h33t.com:3310/announce
deleted 26 Dec 2013 - - -
udp://explodie.org:6969/announce
pending 21 Sep 2014 121 3 1972
udp://anisaishuu.de:2710/announce
pending 21 Sep 2014 138 4 27214
http://anisaishuu.de:2710/announce
pending 21 Sep 2014 138 4 27214
http://bt2.careland.com.cn:6969/announce
pending 09 Aug 2014 231 3 231
http://explodie.org:6969/announce
pending 03 Jun 2014 277 11 2592
udp://bt2.careland.com.cn:6969/announce
pending 26 Dec 2013 0 0 0
ĀµTorrent compatible trackers list

Locations

name
KickassTorrents
Torrent hash: 19733F06522B282E3B041C2868669572EF740559

Uploader Comments

2
anonymous • 03 Aug 2013, 03:05
Or even hard coded Chinese subtitles?
63
Acesn8s88.55K • 03 Aug 2013, 03:24
yes mates has harcoded chinese subs but if i would have cropped them the vid would b unwatchable, has studio english audio though, don't know y chinese have 2 crucify everything :(
the screens r on the main page.

Top Comments

67
remlap48152 • 03 Aug 2013, 13:39
torrent downloaded
audio: 7video: 7
I ain' afraid uh no SUBS!lol
6
anonymous • 03 Aug 2013, 12:47
jeez some people have some high standards for something free. go pay for it in the cinemas you ingrates.

All Comments

audio
7/10
video
7/10
please, leave only comments related to that torrent
or sign-in
0
ryuuseigami5835 • 25 July 2014, 07:22
torrent downloaded
Show comment
audio: 7video: 6
Thanks
0
Apoklios28 • 31 May 2014, 16:57
torrent downloaded
Show comment
audio: 9video: 9
odlican film, super je video
0
johnny1985434 • 18 May 2014, 03:53
torrent downloaded
Show comment
audio: 6video: 7
thanks, love this movie.
0
TelBren910784 • 13 April 2014, 19:15
torrent downloaded
Show comment
audio: 2video: 2
Error downloading
0
dilankasil1231 • 04 April 2014, 03:12
torrent downloaded
Show comment
audio: 9video: 9
Damnn!!
wasa good one!!!
0
MannuYadav82066 • 25 March 2014, 15:28
torrent downloaded
Show comment
audio: 8video: 9
0
ruknrulrafi184 • 23 March 2014, 09:18
torrent downloaded
Show comment
audio: 9video: 9
superb movie, good quality audio, video. thanks for sharing....
0
Isideth5109 • 03 February 2014, 01:18
torrent downloaded
Show comment
audio: 7video: 7
Show More

User Opinions

al_rosiemae967, princehindu865, geekkunal725, swrt75285, Sheena80251, gilbis214, stricnin185, bmoney95, Roury85, basilakos22 ... And 2355 more
rayron4818, linerider692198, calocalderon1491, ToxicSoldier1356, Moleman279, remco307272, mika49192, frnklry1155, maach0140, snipr88814 ... And 212 more
Report a bug