Rajjo 2013 Hindi Movie Scam Rip-GOPI SAHI=PDR

seeders: 9
leechers: 0
Added on Nov 16, 2013 by GOPISAHI7966 in Movies > Bollywood
Torrent verified. Downloaded 30 times.

download
Summary:
No summary yet
Available in versions: ScreenerCam
Rajjo 2013 Hindi Movie Scam Rip-GOPI SAHI=PDR (Size: 321.72 MB)
  Rajjo 2013 Hindi Movie Scam Rip-GOPI SAHI.avi 321.72 MB

Description

image
http://www.imdb.com/title/tt2438764/
Video
ID : 0
Format : AVC
Format/Info : Advanced Video Codec
Format profile : High@L2.1
Format settings, CABAC : Yes
Format settings, ReFrames : 4 frames
Codec ID : H264
Duration : 1h 48mn
Bit rate : 278 Kbps
Width : 640 pixels
Height : 272 pixels
Display aspect ratio : 2.35:1
Frame rate mode : Variable
Frame rate : 25.000 fps
Color space : YUV
Chroma subsampling : 4:2:0
Bit depth : 8 bits
Scan type : Progressive
Bits/(Pixel*Frame) : 0.064
Stream size : 215 MiB (67%)
Writing library : x264 core 135
Encoding settings : cabac=1 / ref=2 / deblock=1:0:0 / analyse=0x3:0x113 /

Audio
ID : 1
Format : MPEG Audio
Format version : Version 1
Format profile : Layer 3
Codec ID : 55
Codec ID/Hint : MP3
Duration : 1h 48mn
Bit rate mode : Constant
Bit rate : 128 Kbps
Channel count : 2 channels
Sampling rate : 44.1 KHz
Compression mode : Lossy
Stream size : 99.1 MiB (31%)
Alignment : Split accross interleaves
Interleave, duration : 40 ms (1.00 video frame)
Writing library : LAMELAME_MAJOR_VERSI
image

Related Torrents

torrent name size files age seed leech

Sharing Widget


Download torrent
321.72 MB
seeders:9
leechers:0
Rajjo 2013 Hindi Movie Scam Rip-GOPI SAHI=PDR

Trackers

tracker name Status checked seeders leechers downloads
udp://9.rarbg.com:2710/announce
outdated 13 Mar 2014 - - -
udp://tracker.openbittorrent.com:80/announce
outdated 13 Mar 2014 - - -
http://announce.torrentsmd.com:6969/announce
outdated 13 Mar 2014 - - -
udp://tracker.publicbt.com:80/announce
outdated 01 Dec 2013 - - -
udp://tracker.istole.it:80/announce
outdated 01 Dec 2013 - - -
http://exodus.desync.com/announce
blocked 13 Mar 2014 - - -
udp://12.rarbg.me:80/announce
blocked 01 Dec 2013 - - -
udp://tracker.seedceo.com:2710/announce
blocked 01 Dec 2013 - - -
http://i.bandito.org/announce
deleted 13 Mar 2014 - - -
http://retracker.hotplug.ru:2710/announce
pending 01 Dec 2013 0 0 0
ĀµTorrent compatible trackers list

Locations

name
KickassTorrents
Torrent hash: AD2E23AACB1021AC22D0351305C9405AEAE21994

All Comments

audio
1/10
video
1/10
please, leave only comments related to that torrent
or sign-in
0
anonymous • 24 November 2013, 20:03 Show comment
gooooooooooood
0
anonymous • 18 November 2013, 09:45 Show comment
bhosdina bakwas print hai
1
anonymous • 16 November 2013, 14:24 Show comment
audio: 1video: 1
baler print... no audio..

User Opinions

Report a bug