New Years Eve Fireworks 2014 London

seeders: 2
leechers: 0
Added on Jan 1, 2014 by Awesome3x5010 in TV
Torrent verified. Downloaded 73 times.

download
New Years Eve Fireworks 2014 London (Size: 159.98 MB)
  New_Years_Eve_Fireworks_-_New_Years_Eve_Fireworks.mp4 159.98 MB

Description


image

image

As Big Ben strikes midnight, full coverage from the Thames Embankment of one of the most spectacular firework displays to be seen anywhere in the world, choreographed to fit beautifully to specially edited music

The celebrations on the Thames end with a traditional rendition of Auld Lang Syne - the perfect way to welcome in the new year


image

Format: MPEG-4
Format profile: Base Media
Codec ID: isom
File size: 160 MiB
Duration: 14mn 52s
Overall bit rate mode: Constant
Overall bit rate: 1 503 Kbps
Season: 1
Movie name: New Year's Eve Fireworks
Album: New Year's Eve Fireworks
Album/Performer: BBC TV
Part: 1
Part/Position: 1
Track name/Position: 1
Grouping: Entertainment
Performer: BBC One
Composer: BBC iPlayer
Genre: Entertainment
ContentType: TV Show
Description: As Big Ben strikes midnight, live coverage of London's spectacular fireworks display
Recorded date: UTC 2013-12-31 23:55:00
Tagged date: UTC 2014-01-01 01:28:32
Writing application: Lavf54.63.104
Copyright: 2014 British Broadcasting Corporation, all rights reserved
Cover: Yes
Comment: As Big Ben strikes midnight, live coverage of London's spectacular fireworks display
Part_ID: s01e01
TVNetworkName: BBC One

Video
ID: 1
Format: AVC
Format/Info: Advanced Video Codec
Format profile: Main@L3.1
Format settings, CABAC: Yes
Format settings, ReFrames: 3 frames
Format settings, GOP: M=4, N=125
Codec ID: avc1
Codec ID/Info: Advanced Video Coding
Duration: 14mn 52s
Bit rate mode: Constant
Bit rate: 1 404 Kbps
Width: 832 pixels
Height: 468 pixels
Display aspect ratio: 16:9
Frame rate mode: Constant
Frame rate: 25.000 fps
Color space: YUV
Chroma subsampling: 4:2:0
Bit depth: 8 bits
Scan type: Progressive
Bits/(Pixel*Frame): 0.144
Stream size: 149 MiB (93%)

Audio
ID: 2
Format: AAC
Format/Info: Advanced Audio Codec
Format profile: LC
Codec ID: 40
Duration: 14mn 52s
Bit rate mode: Constant
Bit rate: 93.5 Kbps
Channel(s): 2 channels
Channel positions: Front: L R
Sampling rate: 48.0 KHz
Compression mode: Lossy
Stream size: 9.95 MiB (6%)


image

Image


BitCoin : 1BCK2S2pHN9GrVz2YbUYvXrfenSoNbXpnz

Related Torrents

torrent name size files age seed leech

Sharing Widget


Download torrent
159.98 MB
seeders:2
leechers:0
New Years Eve Fireworks 2014 London

Trackers

tracker name Status checked seeders leechers downloads
udp://tracker.openbittorrent.com:80/announce
outdated 18 Feb 2014 - - -
udp://tracker.publicbt.com:80/announce
outdated 18 Feb 2014 - - -
udp://tracker.istole.it:80/announce
outdated 18 Feb 2014 - - -
http://tracker.torrenting.com:6969/084729e66d26e4e702c9d2f207ea9fd3/announce
pending 18 Feb 2014 2 0 73
ĀµTorrent compatible trackers list

Locations

name author
KickassTorrents Rock2Hell
Torrent hash: F5D761CAC9F06A6A57CF9FF23913188357E0542C

All Comments

audio
0/10
video
0/10
please, leave only comments related to that torrent
or sign-in

User Opinions

afelix19775473, kenitchy4803, nst20002494, g4mac1977, yesway791632, Keflex1202, ClearBlueSky1149, islandboy19125299, 576f6e646134, perseus91115 ... And 1 more
Report a bug