Goli Soda (2014) TC Rip 1CD XviD MP3 - Team XDN

seeders: 8
leechers: 1
Added on Jan 26, 2014 by Downloads77852381 in Movies > Asian
Torrent verified. Downloaded 1,087 times.

download
Goli Soda (2014) TC Rip 1CD XviD MP3 - Team XDN (Size: 697.2 MB)
  WwW.XtremeDoN.CoM- Goli Soda (2014) TC Rip 1CD XviD MP3 - Team XDN.avi 697.2 MB

Description

Goli Soda (2014) TC Rip 1CD XviD MP3 - Team XDN

image

image image image image image image image image

Format : AVI
Format/Info : Audio Video Interleave
File size : 697 MiB
Duration : 1h 51mn
Overall bit rate : 876 Kbps

Video
ID : 0
Format : MPEG-4 Visual
Format profile : Simple@L3
Format settings, BVOP : No
Format settings, QPel : No
Format settings, GMC : No warppoints
Format settings, Matrix : Default (H.263)
Codec ID : XVID
Codec ID/Hint : XviD
Duration : 1h 51mn
Source duration : 1h 51mn
Bit rate : 783 Kbps
Width : 608 pixels
Height : 256 pixels
Display aspect ratio : 2.40:1
Frame rate : 29.970 fps
Color space : YUV
Chroma subsampling : 4:2:0
Bit depth : 8 bits
Scan type : Progressive
Compression mode : Lossy
Bits/(Pixel*Frame) : 0.168
Stream size : 623 MiB (89%)
Writing library : XviD 1.1.2 (UTC 2006-11-01)

Audio
ID : 1
Format : MPEG Audio
Format version : Version 1
Format profile : Layer 3
Mode : Joint stereo
Mode extension : MS Stereo
Codec ID : 55
Codec ID/Hint : MP3
Duration : 1h 51mn
Bit rate mode : Constant
Bit rate : 80.0 Kbps
Channel(s) : 2 channels
Sampling rate : 44.1 KHz
Compression mode : Lossy
Stream size : 63.7 MiB (9%)
Alignment : Split accross interleaves
Interleave, duration : 26 ms (0.78 video frame)

Sharing Widget


Download torrent
697.2 MB
seeders:8
leechers:1
Goli Soda (2014) TC Rip 1CD XviD MP3 - Team XDN

Trackers

tracker name Status checked seeders leechers downloads
udp://tracker.publicbt.com:80/announce
outdated 28 Apr 2014 - - -
udp://9.rarbg.com:2710/announce
outdated 28 Apr 2014 - - -
udp://coppersurfer.tk:6969/announce
outdated 28 Apr 2014 - - -
http://tracker.torrentfrancais.com/announce
outdated 28 Apr 2014 - - -
udp://open.demonii.com:1337/announce
outdated 28 Apr 2014 - - -
udp://tracker.istole.it:80/announce
outdated 28 Apr 2014 - - -
udp://tracker.openbittorrent.com:80/announce
outdated 28 Apr 2014 - - -
udp://pow7.com:80/announce
outdated 28 Apr 2014 - - -
udp://11.rarbg.com:80/announce
private 28 Apr 2014 - - -
http://tracker.nwps.ws:6969/announce
pending 17 Feb 2014 0 0 0
ĀµTorrent compatible trackers list

Locations

name
KickassTorrents
Torrent hash: 8ED01937F9DE2A36507D61CB431A18053E206DC0

All Comments

audio
0/10
video
0/10
please, leave only comments related to that torrent
or sign-in

User Opinions


fish06285
Report a bug