All Over The Guy (2001) [XviD Ita Mp3]

seeders: 4
leechers: 3
Added on Jul 11, 2013 in Movies
Downloaded 1,705 times.

download
All Over The Guy (2001) [XviD Ita Mp3] (Size: 447.07 MB)
  All Over The Guy (2001) [XviD Ita Mp3] [TNTvillage].avi 447.07 MB

Description

All Over The Guy (2001) [XviD Ita Mp3]
ALL OVER THE GUY

Titolo originale: All Over the Guy

Paese di produzione: USA

Anno: 2001

Durata: 96 min

Colore: colore

Audio: sonoro

Genere: commedia romantica

Regia: Julie Davis

Sceneggiatura: Dan Bucatinsky

Fotografia: Goran Pavicevic

Montaggio: Glenn Garland, Mary Morrisey

Musiche: Peter Stuart, Andrew Williams



Dan Bucatinsky >> Eli Wyckoff

Richard Ruccolo >> Tom

Sasha Alexander >> Jackie Samantha Gold

Adam Goldberg >> Brett Miles Sanford

Doris Roberts >> Esther

Andrea Martin >> Dr. Ellen Wyckoff

Tony Abatemarco >> Dr. David Wyckoff

Lisa Kudrow >> Marie

Christina Ricci >> Rayna Wyckoff



Tom è un fumatore e bevitore incallito mentre Eli è un romantico appassionato di fantascienza. I due, molto diversi tra loro, scoprono di non essere molto compatibili, dopo che i loro amici etero (Jackie e Brett) gli hanno organizzato un appuntamento per farli conoscere. Inizialmente i due non si piacciono, ma in seguito scatta la passione, però la loro turbolenta storia dovrà fare i conti con la paura di lasciarsi andare e vivere tranquillamente una storia d'amore, e soprattutto dovrà fare i conti con i vizi di Tom. Dopo la fine della loro relazione Eli e Tom raccontano la loro storia: il primo in una sala d'attesa mentre aspetta il risultato del test per AIDS, invece Tom racconta ad uno dei partecipanti all'Anonima Alcolisti....

General

Complete name : All Over The Guy (2001) [XviD Ita Mp3] [TNTvillage].avi

Format : AVI

Format/Info : Audio Video Interleave

File size : 447 MiB

Duration : 1h 31mn

Overall bit rate : 680 Kbps
Video

ID : 0

Format : MPEG-4 Visual

Format profile : Simple@L3

Format settings, BVOP : Yes

Format settings, QPel : No

Format settings, GMC : No warppoints

Format settings, Matrix : Default (H.263)

Muxing mode : Packed bitstream

Codec ID : XVID

Codec ID/Hint : XviD

Duration : 1h 31mn

Bit rate : 478 Kbps

Width : 680 pixels

Height : 480 pixels

Display aspect ratio : 1.417

Frame rate : 25.000 fps

Resolution : 8 bits

Colorimetry : 4:2:0

Scan type : Progressive

Bits/(Pixel*Frame) : 0.059

Stream size : 314 MiB (70%)

Writing library : XviD 1.1.0 Beta1 (UTC 2005-01-16)
Audio

ID : 1

Format : MPEG Audio

Format version : Version 1

Format profile : Layer 3

Codec ID : 55

Codec ID/Hint : MP3

Duration : 1h 31mn

Bit rate mode : Constant

Bit rate : 192 Kbps

Channel(s) : 2 channels

Sampling rate : 44.1 KHz

Video delay : 26ms

Stream size : 126 MiB (28%)

Alignment : Split accross interleaves

Interleave, duration : 40 ms (1.00 video frame)

Title : Audio Stream

Writing library : LAME3.92

Sharing Widget


Download torrent
447.07 MB
seeders:4
leechers:3
All Over The Guy (2001) [XviD Ita Mp3]

Trackers

tracker name Status checked seeders leechers downloads
udp://tracker.openbittorrent.com:80/announce
outdated 20 May 2014 - - -
udp://tracker.istole.it:80/announce
outdated 20 May 2014 - - -
udp://tracker.tntvillage.scambioetico.org:2710/announce
outdated 20 May 2014 - - -
udp://tracker.publicbt.com:80/announce
outdated 20 May 2014 - - -
udp://genesis.1337x.org:1337/announce
outdated 03 Sep 2013 - - -
http://genesis.1337x.org:1337/announce
outdated 03 Sep 2013 - - -
udp://tracker.torrentbox.com:2710/announce
outdated 03 Sep 2013 - - -
udp://fr33domtracker.h33t.com:3310/announce
deleted 03 Sep 2013 - - -
µTorrent compatible trackers list

Locations

name
ExtraTorrent
Torrent hash: 94BEE57CB571B302D25B3D3CB164E74FAB87F048

All Comments

audio
0/10
video
0/10
please, leave only comments related to that torrent
or sign-in
0
bllkya169 • 19 January 2014, 12:01
torrent downloaded
Show comment
Not in english

User Opinions

vessto22.84K, mmmansor129, Owenjerome61
Report a bug